(navigation image)
Home Audio Books & Poetry | Community Audio | Computers & Technology | Grateful Dead | Live Music Archive | Music, Arts & Culture | Netlabels | News & Public Affairs | Non-English Audio | Podcasts | Radio Programs | Spirituality & Religion | The Shady Trees | BRYAC Funk Allstars
Search: Advanced Search
Anonymous User (login or join us)
Upload

Listen to audio

item image
Run time: 2:04:40

Stream (help[help])

VBR M3U
MP3 via M3U

Play / Download (help[help])

VBR ZIP

Ogg Vorbis

Lossless zip


All Files: HTTPS Torrent (2/0)

Resources

Bookmark

CrackerCracker Live at Pappy & Harriet's Pioneertown Palace on 2011-09-17 (September 17, 2011)

something has gone horribly wrong 8-p
Prefer flash? · Embed · Questions/Feedback?


Collection: Cracker
Band/Artist: Cracker
Date: September 17, 2011 (check for other copies)
Venue: Pappy & Harriet's Pioneertown Palace
Location: Pioneertown, CA USA

Source: AKG C522MS (PickleMic) + Soundcraft 800B > Edirol R44 > WAV @2448
Lineage: WAVs > DP4 > Audacity 1.3.13 (tracking, start & end fades) > xACT 2.13 > FLAC level 8
Taped by: morst
Transferred by: morst & digitalist0ne
Keywords: 24-bit high resolution version - NOT for CD burning; Live Concert; Pitown; Pappy's; P&H's; Crampout; Camper Van Beethoven; CVB; Cop Night


Description

01. intro
02. Let's Go For A Ride
03. Movie Star
04. Teen Angst
05. 100 Flower Power Maximum
06. The World Is Mine
07. Hand Me My Inhaler
08. Can I Take My Gun Up To Heaven?
09. Eurotrash Girl
10. Friends
11. Been Around the World
12. Gimme One More Chance
13. Waiting For You Girl
14. Seven Days
15. Take Me Down To The Infirmary
16. Nostalgia
17. banter- TJ cop ruse
18. St. Cajetan
19. Lonesome Johnny Blues
20. Everybody Gets One Free
21. Low
22. Get Off This
23. Happy Birthday To Me
24. Big Dipper
25. Loser
26. Another Song About the Rain
27. recordist's signout

Notes

Cracker
Saturday, Sept 17, 2011
Pioneertown, CA USA
Pappy & Harriet's Pioneertown Palace
outdoor stage

Recorded by morst, transferred by morst & digitalist0ne; gear supplied by and thanks to Team Pickle

source:
AKG C522MS (PickleMic) + Soundcraft 800B > Edirol R44 > WAV @2448

transfer:
WAVs > DP4 > Audacity 1.3.13 (tracking, start & end fades) > xACT 2.13 > FLAC level 8

FoH: Ian

SHNTOOL:
length expanded size cdr WAVE problems fmt ratio filename
1:27.387 25167572 B cxx -- ---xx flac 0.6449 Cracker2011-09-17t01.flac
3:12.757 55514192 B cxx -- ---xx flac 0.8036 Cracker2011-09-17t02.flac
3:31.092 60794510 B cxx -- ---xx flac 0.7971 Cracker2011-09-17t03.flac
4:09.384 71822582 B cxx -- ---xx flac 0.7990 Cracker2011-09-17t04.flac
2:41.176 46418642 B cxx -- ---xx flac 0.7770 Cracker2011-09-17t05.flac
3:42.948 64209044 B cxx -- ---xx flac 0.7841 Cracker2011-09-17t06.flac
2:07.898 36834776 B cxx -- ---xx flac 0.7255 Cracker2011-09-17t07.flac
5:00.358 86503010 B cxx -- ---xx flac 0.7188 Cracker2011-09-17t08.flac
8:29.794 146820854 B cxx -- ---xx flac 0.7300 Cracker2011-09-17t09.flac
4:15.693 73639544 B cxx -- ---xx flac 0.7117 Cracker2011-09-17t10.flac
5:26.735 94099646 B cxx -- ---xx flac 0.7244 Cracker2011-09-17t11.flac
4:18.101 74333078 B cxx -- ---xx flac 0.7427 Cracker2011-09-17t12.flac
4:07.846 71379656 B cxx -- ---xx flac 0.7451 Cracker2011-09-17t13.flac
4:59.134 86150624 B cxx -- ---xx flac 0.7249 Cracker2011-09-17t14.flac
4:25.588 76489472 B cxx -- ---xx flac 0.7056 Cracker2011-09-17t15.flac
4:43.236 81572156 B cxx -- ---xx flac 0.7447 Cracker2011-09-17t16.flac
1:57.996 33982892 B cxx -- ---xx flac 0.6468 Cracker2011-09-17t17.flac
6:59.365 120777044 B cxx -- ---xx flac 0.7368 Cracker2011-09-17t18.flac
3:11.342 55106558 B cxx -- ---xx flac 0.7268 Cracker2011-09-17t19.flac
8:41.741 150261536 B cxx -- ---xx flac 0.7555 Cracker2011-09-17t20.flac
4:41.393 81041174 B cxx -- ---xx flac 0.7732 Cracker2011-09-17t21.flac
4:01.047 69421658 B cxx -- ---xx flac 0.7550 Cracker2011-09-17t22.flac
3:46.669 65280860 B cxx -- ---xx flac 0.7491 Cracker2011-09-17t23.flac
5:47.695 100136186 B cxx -- ---xx flac 0.6914 Cracker2011-09-17t24.flac
6:09.135 106310996 B cxx -- ---xx flac 0.7066 Cracker2011-09-17t25.flac
9:43.014 167908118 B cxx -- ---xx flac 0.7295 Cracker2011-09-17t26.flac
3:00.800 52070540 B cxx -- ---xx flac 0.6319 Cracker2011-09-17t27.flac
124:39.325 2154046920 B 0.7352 (27 files)

-~-~-~-~-~-~-~-~-~-~-~-~-~-~-~-~-~-~-~-~-~-~-~-~-~-
The Soundscape Preservation Society (Founded 1991)
in conjunction with Team Pickle
http://www.iamtypingwithonefinger.com/SPS.html
-~-~-~-~-~-~-~-~-~-~-~-~-~-~-~-~-~-~-~-~-~-~-~-~-~-

Individual Files

Audio Files 24bit Flac VBR MP3 Ogg Vorbis
intro 15.5 MB
2.0 MB
989.6 KB
Let's Go For A Ride 42.5 MB
5.2 MB
2.2 MB
Movie Star 46.2 MB
5.4 MB
2.4 MB
Teen Angst 54.7 MB
6.5 MB
2.8 MB
100 Flower Power Maximum 34.4 MB
4.2 MB
1.8 MB
The World Is Mine 48.0 MB
5.6 MB
2.5 MB
Hand Me My Inhaler 25.5 MB
3.2 MB
1.5 MB
Can I Take My Gun Up To Heaven? 59.3 MB
7.3 MB
3.3 MB
Eurotrash Girl 102.2 MB
12.5 MB
5.6 MB
Friends 50.0 MB
6.5 MB
2.8 MB
Been Around the World 65.0 MB
7.9 MB
3.6 MB
Gimme One More Chance 52.7 MB
6.2 MB
2.9 MB
Waiting For You Girl 50.7 MB
6.2 MB
2.8 MB
Seven Days 59.6 MB
7.5 MB
3.4 MB
Take Me Down To The Infirmary 51.5 MB
6.6 MB
2.9 MB
Nostalgia 57.9 MB
7.3 MB
3.2 MB
banter- TJ cop ruse 21.0 MB
2.7 MB
1.3 MB
St. Cajetan 84.9 MB
10.7 MB
4.7 MB
Lonesome Johnny Blues 38.2 MB
4.8 MB
2.1 MB
Everybody Gets One Free 108.3 MB
13.6 MB
5.9 MB
Low 59.8 MB
7.4 MB
3.1 MB
Get Off This 50.0 MB
6.3 MB
2.7 MB
Happy Birthday To Me 46.6 MB
5.6 MB
2.6 MB
Big Dipper 66.0 MB
8.4 MB
3.8 MB
Loser 71.6 MB
9.1 MB
4.1 MB
Another Song About the Rain 116.8 MB
14.7 MB
6.5 MB
recordist's signout 31.4 MB
4.2 MB
2.0 MB
Image Files JPEG JPEG Thumb
P2950949.JPG 442.9 KB
5.1 KB
Information FormatSize
Cracker2011-09-17.ffp Flac FingerPrint 1.6 KB
Cracker2011-09-17.md5 Checksums 1.6 KB
Cracker2011-09-17_files.xml Metadata [file]
Cracker2011-09-17_meta.xml Metadata 8.5 KB
Cracker2011-09-17_reviews.xml Metadata 442.0 B
Other Files Text Archive BitTorrent
Cracker2011-09-17-info.txt 6.9 KB
Cracker2011-09-17_archive.torrent 51.2 KB

Write a review
Downloaded 316 times
Reviews
Average Rating:

Reviewer: morst - - December 17, 2011
Subject: COPS!!! COPS EVERYWHERE!!!!!
!